[CUETools log; Date: 5/16/2020 1:31:18 AM; Version: 2.1.7]
HDCD: peak extend: none, transient filter: some, gain: none
[CTDB TOCID: f5hnBHPK9lX6SOkl3T75iFrLeaM-] found.
Track | CTDB Status
1 | (24/24) Accurately ripped
2 | (24/24) Accurately ripped
3 | (24/24) Accurately ripped
4 | (24/24) Accurately ripped
5 | (24/24) Accurately ripped
6 | (24/24) Accurately ripped
7 | (24/24) Accurately ripped
8 | (24/24) Accurately ripped
9 | (24/24) Accurately ripped
[AccurateRip ID: 000baa98-0056124f-79083709] found.
Track [ CRC | V2 ] Status
01 [0c37a6d1|3be123cd] (04+39/43) Accurately ripped
02 [9c132a64|0ad101b2] (03+38/41) Accurately ripped
03 [17fb4555|88dfa463] (03+38/41) Accurately ripped
04 [d4b19e68|ad72650a] (03+38/41) Accurately ripped
05 [9aaf4c9d|852de6ed] (03+38/41) Accurately ripped
06 [10d5c723|768de021] (04+39/43) Accurately ripped
07 [e1b20933|0a70750a] (03+38/41) Accurately ripped
08 [7f3cbad2|c182efb1] (03+38/41) Accurately ripped
09 [998f97eb|a0a9199a] (03+38/41) Accurately ripped

Track Peak [ CRC32 ] [W/O NULL] [ LOG ]
-- 100.0 [64DE1170] [F6BF070B] CRC32
01 100.0 [BD587CF6] [6873165C]
02 97.9 [0C7D489B] [8905B538]
03 94.0 [4F0D5FD4] [6E7B50F6]
04 100.0 [A2307D44] [86016339]
05 100.0 [1567D29F] [7EFD9EA8]
06 99.9 [7C08E282] [3352E688]
07 100.0 [85AD118E] [D0998130]
08 98.5 [076DF530] [D6CC7C0F]
09 100.0 [92A4D9E1] [6DBCD668]

Edit
Pub: May 15 2020 23:47 UTC
Views: 70