foobar2000 1.5 / Dynamic Range Meter 1.1.1
log date: 2020-05-17 00:53:09


Analyzed: The Miracles / Love Crazy & Miracles


DR Peak RMS Duration Track


DR14 -4.39 dB -25.54 dB 1:20 01-Love Crazy Introductory
DR8 -1.36 dB -19.10 dB 5:40 02-Love Crazy Overture
DR8 -3.26 dB -20.77 dB 7:42 03-Too Young
DR8 -1.32 dB -18.62 dB 6:09 04-Spy For Brotherhood
DR8 -1.19 dB -18.98 dB 5:49 05-A Better Way to Live
DR9 -1.28 dB -18.95 dB 4:46 06-Women Make the World Go
DR7 -2.83 dB -18.89 dB 4:31 07-The Bird Must Fly Away
DR8 -1.58 dB -19.66 dB 3:32 08-I Can Touch the Sky
DR8 -1.47 dB -18.46 dB 2:17 09-Love Crazy Reprise


Number of tracks: 9
Official DR value: DR9

Samplerate: 88200 Hz
Channels: 6
Bits per sample: 24
Bitrate: 5398 kbps
Codec: FLAC

================================================================================

Edit
Pub: May 16 2020 23:31 UTC
Views: 106