foobar2000 1.5 / Dynamic Range Meter 1.1.1
log date: 2020-05-16 20:32:04


Analyzed: The Miracles / Love Crazy & Miracles


DR Peak RMS Duration Track


DR8 -9.54 dB -30.14 dB 1:18 01-Love Crazy Introductory
DR8 -6.79 dB -24.75 dB 5:39 02-Love Crazy/ Love Crazy Overture
DR8 -8.73 dB -26.27 dB 7:42 03-Too Young
DR9 -6.52 dB -24.27 dB 6:08 04-Spy For Brotherhood
DR8 -6.90 dB -24.64 dB 5:49 05-A Better Way to Live
DR9 -6.83 dB -24.61 dB 4:45 06-Women Make the World Go Round
DR8 -8.36 dB -24.51 dB 4:28 07-The Bird Must Fly Away
DR8 -7.22 dB -25.21 dB 3:28 08-I Can Touch the Sky
DR8 -7.02 dB -24.15 dB 2:17 09-I Cant Stand It


Number of tracks: 9
Official DR value: DR8

Samplerate: 2822400 Hz / PCM Samplerate: 176400 Hz
Channels: 6
Bits per sample: 1
Bitrate: 16934 kbps
Codec: DST64

================================================================================


Analyzed: The Miracles / Love Crazy & Miracles


DR Peak RMS Duration Track


DR14 -12.12 dB -31.94 dB 1:18 01-Love Crazy Introductory
DR15 -6.26 dB -23.20 dB 5:33 02-Love Crazy/ Love Crazy Overture
DR16 -7.70 dB -27.55 dB 7:39 03-Too Young
DR15 -4.99 dB -23.38 dB 6:05 04-Spy For Brotherhood
DR15 -5.73 dB -24.06 dB 5:42 05-A Better Way to Live
DR15 -5.70 dB -23.80 dB 4:48 06-Women Make the World Go Round
DR13 -7.19 dB -23.74 dB 4:31 07-The Bird Must Fly Away
DR15 -7.57 dB -24.88 dB 3:26 08-I Can Touch the Sky
DR13 -6.65 dB -22.20 dB 3:17 09-I Cant Stand It
DR14 -6.68 dB -23.19 dB 3:54 10-Love Doctor
DR14 -6.75 dB -25.50 dB 4:09 11-The Magic of Your Eyes Lauras Eyes
DR14 -6.25 dB -23.52 dB 4:21 12-Freeway
DR13 -6.18 dB -21.51 dB 3:00 13-Hot Dance
DR13 -6.84 dB -21.78 dB 3:08 14-Mean Machine
DR13 -6.48 dB -23.85 dB 4:18 15-Sad Rain
DR13 -6.15 dB -22.16 dB 3:45 16-Reach For the Sky


Number of tracks: 16
Official DR value: DR14

Samplerate: 2822400 Hz / PCM Samplerate: 176400 Hz
Channels: 2
Bits per sample: 1
Bitrate: 5645 kbps
Codec: DST64

================================================================================

Edit
Pub: May 16 2020 23:28 UTC
Views: 145