[CUETools log; Date: 5/17/2022 12:05:09 AM; Version: 2.1.7]
[CTDB TOCID: CD1jccUEWDuy0aZiSiUH5t5LSgA-] found.
Track | CTDB Status
1 | (123/129) Accurately ripped
2 | (127/129) Accurately ripped
3 | (128/129) Accurately ripped
4 | (128/129) Accurately ripped
5 | (128/129) Accurately ripped
6 | (128/129) Accurately ripped
7 | (128/129) Accurately ripped
[AccurateRip ID: 000ab988-003fc829-5e08b707] found.
Track [ CRC | V2 ] Status
01 [73f1d26b|9caad2ae] (00+44/44) Accurately ripped
02 [c7b9e0f4|c2fcb1da] (00+45/45) Accurately ripped
03 [04300f2c|571b6283] (00+45/45) Accurately ripped
04 [e80cda43|596a714e] (00+45/45) Accurately ripped
05 [aafff583|63089098] (00+45/45) Accurately ripped
06 [eac9dcb0|edb66428] (00+45/45) Accurately ripped
07 [ac935991|c7d9bb46] (00+45/45) Accurately ripped

Track Peak [ CRC32 ] [W/O NULL] [ LOG ]
-- 99.4 [D492FC07] [430048EA]
01 99.4 [D79B1711] [D59CBBD3] CRC32
02 99.0 [AB9D75A7] [B3BFA81F] CRC32
03 99.2 [581AAD3A] [C3C288CA] CRC32
04 99.1 [D0621080] [69D1F696] CRC32
05 99.1 [4803D163] [9045BC49] CRC32
06 98.1 [3B12B346] [91FF8817] CRC32
07 99.2 [BF8AA7A1] [44B413F3] CRC32

Edit
Pub: 17 May 2022 00:57 UTC
Views: 19