Exact Audio Copy V1.0 beta 3 from 29. August 2011

EAC extraction logfile from 5. February 2012, 16:50

Gary Wright / The Dream Weaver [AFZ 132]

Used drive : Optiarc DVD RW AD-7200S Adapter: 2 ID: 1

Read mode : Secure
Utilize accurate stream : Yes
Defeat audio cache : Yes
Make use of C2 pointers : No

Read offset correction : 48
Overread into Lead-In and Lead-Out : No
Fill up missing offset samples with silence : Yes
Delete leading and trailing silent blocks : No
Null samples used in CRC calculations : Yes
Used interface : Installed external ASPI interface

Used output format : User Defined Encoder
Selected bitrate : 1024 kBit/s
Quality : High
Add ID3 tag : No
Command line compressor : C:\Program Files\Exact Audio Copy\wavpack.exe
Additional command line options : -hlmx2 %source% %dest%

TOC of the extracted CD

 Track |   Start  |  Length  | Start sector | End sector 
---------------------------------------------------------
    1  |  0:00.00 |  3:54.63 |         0    |    17612   
    2  |  3:54.63 |  3:27.11 |     17613    |    33148   
    3  |  7:21.74 |  3:25.44 |     33149    |    48567   
    4  | 10:47.43 |  3:46.32 |     48568    |    65549   
    5  | 14:34.00 |  3:38.68 |     65550    |    81967   
    6  | 18:12.68 |  4:16.30 |     81968    |   101197   
    7  | 22:29.23 |  4:45.14 |    101198    |   122586   
    8  | 27:14.37 |  3:00.66 |    122587    |   136152   
    9  | 30:15.28 |  4:48.29 |    136153    |   157781

Range status and errors

Selected range

1
2
3
4
5
6
7
8
Filename C:\lossless\Gary Wright\Gary Wright - The Dream Weaver [AFZ 132].wav

Peak level 100.0 %
Extraction speed 3.3 X
Range quality 100.0 %
Test CRC 64DE1170
Copy CRC 64DE1170
Copy OK

No errors occurred

AccurateRip summary

Track 1 accurately ripped (confidence 1) [0C37A6D1] (AR v1)
Track 2 accurately ripped (confidence 1) [9C132A64] (AR v1)
Track 3 accurately ripped (confidence 1) [17FB4555] (AR v1)
Track 4 accurately ripped (confidence 1) [D4B19E68] (AR v1)
Track 5 accurately ripped (confidence 1) [9AAF4C9D] (AR v1)
Track 6 accurately ripped (confidence 1) [10D5C723] (AR v1)
Track 7 accurately ripped (confidence 1) [E1B20933] (AR v1)
Track 8 accurately ripped (confidence 1) [7F3CBAD2] (AR v1)
Track 9 accurately ripped (confidence 1) [998F97EB] (AR v1)

All tracks accurately ripped

End of status report

---- CUETools DB Plugin V2.1.3

[CTDB TOCID: f5hnBHPK9lX6SOkl3T75iFrLeaM-] found, Submit result: f5hnBHPK9lX6SOkl3T75iFrLeaM- has been confirmed
[87b64887] (1/1) Accurately ripped

==== Log checksum A989DCFD7856F1138719AC32494923C5502E3A2365C906093C8ABA2566EBF5CA ====

Edit
Pub: May 15 2020 23:46 UTC
Views: 87