[CUETools log; Date: 11/22/2015 1:47:36 PM; Version: 2.1.5]
Pregap length 00:00:26.
[CTDB TOCID: VtSRI5a2RjsNGca_5Gb1B0JMsxE-] found.
Track | CTDB Status
1 | (3/3) Accurately ripped
2 | (3/3) Accurately ripped
3 | (3/3) Accurately ripped
4 | (3/3) Accurately ripped
5 | (3/3) Accurately ripped
6 | (3/3) Accurately ripped
7 | (3/3) Accurately ripped
8 | (3/3) Accurately ripped
9 | (3/3) Accurately ripped
10 | (3/3) Accurately ripped
11 | (3/3) Accurately ripped
12 | (3/3) Accurately ripped
13 | (3/3) Accurately ripped
14 | (3/3) Accurately ripped
[AccurateRip ID: 0010b5b2-00b0e861-a5075e0e] found.
Track [ CRC | V2 ] Status
01 [f33105e6|a005b3cb] (0+1/1) Accurately ripped
02 [39c64e5f|3fb52ff3] (0+1/1) Accurately ripped
03 [6d32ed00|ab2db638] (0+1/1) Accurately ripped
04 [d4a1947e|47b41f66] (0+1/1) Accurately ripped
05 [be0d50dd|29e9c74e] (0+1/1) Accurately ripped
06 [fb7aaf0b|cacc1a10] (0+1/1) Accurately ripped
07 [d9f34b15|cb29902b] (0+1/1) Accurately ripped
08 [8c13314f|eda020be] (0+1/1) Accurately ripped
09 [ff13a22c|1d699514] (0+1/1) Accurately ripped
10 [ca219d37|10910482] (0+1/1) Accurately ripped
11 [bdba8996|4b35d2c8] (0+1/1) Accurately ripped
12 [c3031ce8|2c304832] (0+1/1) Accurately ripped
13 [32505182|d585c39c] (0+1/1) Accurately ripped
14 [1d9f3888|e9ee6ae0] (0+1/1) Accurately ripped

Track Peak [ CRC32 ] [W/O NULL] [ LOG ]
-- 100.0 [5D6F0134] [A4583272] CRC32
01 100.0 [66BFE964] [9E98EC50]
02 99.3 [EDC420E1] [22DA4393]
03 87.4 [260C32BC] [752A74D4]
04 94.6 [7FA1E499] [5A017EDA]
05 83.0 [0E65273C] [A7F9E6A8]
06 74.7 [8F19BB1E] [3B3DC4FB]
07 74.8 [8C562A36] [3C1F65AE]
08 86.3 [94C3FBE4] [EF72A5BE]
09 79.6 [5E8FA5FC] [0C15DE75]
10 66.9 [0FC5F0C0] [23CD43AC]
11 90.5 [E5A38AD3] [58CC50B1]
12 78.5 [7EEE962E] [66E3A466]
13 89.1 [66C121EF] [566EA45A]
14 76.1 [12A1E41F] [3553E08C]

Edit
Pub: 11 May 2022 18:02 UTC
Views: 12