Exact Audio Copy V1.0 beta 2 from 29. April 2011

EAC extraction logfile from 4. November 2015, 15:21

Nat King Cole / The Christmas Song [2015 Audio Fidelity SACD]

Used drive : HL-DT-STBD-RE BH14NS40 Adapter: 0 ID: 2

Read mode : Secure
Utilize accurate stream : Yes
Defeat audio cache : Yes
Make use of C2 pointers : No

Read offset correction : 6
Overread into Lead-In and Lead-Out : No
Fill up missing offset samples with silence : Yes
Delete leading and trailing silent blocks : No
Null samples used in CRC calculations : Yes
Used interface : Native Win32 interface for Win NT & 2000

Used output format : User Defined Encoder
Selected bitrate : 1024 kBit/s
Quality : High
Add ID3 tag : No
Command line compressor : C:\Program Files (x86)\Exact Audio Copy\Flac\flac.exe
Additional command line options : -V -0 -T "artist=%albumartist%" -T "title=%title%" -T "album=%albumtitle%" -T "date=%year%" -T "genre=%genre%" -T "tracknumber=%tracknr%" %source%

TOC of the extracted CD

 Track |   Start  |  Length  | Start sector | End sector 
---------------------------------------------------------
    1  |  0:00.26 |  3:11.65 |        26    |    14415   
    2  |  3:12.16 |  1:08.49 |     14416    |    19564   
    3  |  4:20.65 |  2:27.45 |     19565    |    30634   
    4  |  6:48.35 |  3:00.68 |     30635    |    44202   
    5  |  9:49.28 |  2:18.67 |     44203    |    54619   
    6  | 12:08.20 |  1:26.70 |     54620    |    61139   
    7  | 13:35.15 |  2:56.68 |     61140    |    74407   
    8  | 16:32.08 |  1:48.71 |     74408    |    82578   
    9  | 18:21.04 |  3:25.04 |     82579    |    97957   
   10  | 21:46.08 |  2:01.01 |     97958    |   107033   
   11  | 23:47.09 |  1:24.56 |    107034    |   113389   
   12  | 25:11.65 |  1:57.50 |    113390    |   122214   
   13  | 27:09.40 |  2:02.37 |    122215    |   131401   
   14  | 29:12.02 |  2:14.47 |    131402    |   141498

Range status and errors

Selected range

1
2
3
4
5
6
7
8
Filename C:\EAC\Nat King Cole - (1967) The Christmas Song [2015 Audio Fidelity SACD]\Nat King Cole - The Christmas Song [2015 Audio Fidelity SACD].wav

Peak level 100.0 %
Extraction speed 4.2 X
Range quality 100.0 %
Test CRC 5D6F0134
Copy CRC 5D6F0134
Copy OK

No errors occurred

AccurateRip summary

Track 1 not present in database
Track 2 not present in database
Track 3 not present in database
Track 4 not present in database
Track 5 not present in database
Track 6 not present in database
Track 7 not present in database
Track 8 not present in database
Track 9 not present in database
Track 10 not present in database
Track 11 not present in database
Track 12 not present in database
Track 13 not present in database
Track 14 not present in database

None of the tracks are present in the AccurateRip database

End of status report

==== Log checksum F5740ABB0B571B1E8837390EA1E501E9537139412263D81A44A6044955224A91 ====

Edit
Pub: 11 May 2022 18:02 UTC
Views: 9