foobar2000 1.5 / Dynamic Range Meter 1.1.1
log date: 2020-05-17 00:53:28


Analyzed: The Miracles / Love Crazy & Miracles


DR Peak RMS Duration Track


DR15 -6.91 dB -29.46 dB 1:20 01-Love Crazy Introductory
DR15 -0.39 dB -17.62 dB 5:34 02-Love Crazy/ Love Crazy Overture
DR16 -2.20 dB -22.56 dB 7:39 03-Too Young
DR15 -0.05 dB -17.81 dB 6:07 04-Spy For Brotherhood
DR15 -0.01 dB -18.52 dB 5:42 05-A Better Way to Live
DR15 -0.26 dB -18.28 dB 4:50 06-Women Make the World Go Round
DR13 -1.85 dB -18.21 dB 4:34 07-The Bird Must Fly Away
DR15 -1.87 dB -19.49 dB 3:28 08-I Can Touch the Sky
DR13 -1.03 dB -16.57 dB 3:19 09-I Cant Stand It
DR14 -1.12 dB -17.62 dB 3:57 10-Love Doctor
DR13 -1.01 dB -20.13 dB 4:09 11-The Magic of Your Eyes Lauras Eyes
DR14 -0.79 dB -17.97 dB 4:24 12-Freeway
DR13 -0.30 dB -15.85 dB 3:02 13-Hot Dance
DR13 -1.24 dB -16.13 dB 3:10 14-Mean Machine
DR13 -0.74 dB -18.28 dB 4:20 15-Sad Rain
DR13 -0.52 dB -16.41 dB 3:45 16-Reach For the Sky


Number of tracks: 16
Official DR value: DR14

Samplerate: 88200 Hz
Channels: 2
Bits per sample: 24
Bitrate: 2709 kbps
Codec: FLAC
==================== ============================================================

Edit
Pub: May 16 2020 23:32 UTC
Views: 114